Printable Version of Topic

Click here to view this topic in its original format

Metal Area - Extreme Music Portal _ New Releases _ Kaasibal - The Void Nightmare (2017)

Posted by: necroscum Jan 11 2017, 14:12:27

http://metalarea.org/images/audiocovers/2017_Jan/acov_tid281234.jpg

*Artist: Kaasibal
*Album: The Void Nightmare
*Year: 2017
*Genre: Sludge/Stoner/Doom Metal
*Country: Mexico
*Format: mp3@CBR320kbps
*Size: 98MB

Tracklist:
01. Doomsphere 03:49
02. Malignant Woman 05:16
03. Acid Eyes 07:01
04. Electric Weed 04:53
05. The Cosmic Witch 07:48
06. Void 14:00
******************************
Total playing time: 42:47

https://www.facebook.com/Kaasibal
https://kaasibal.bandcamp.com/album/the-void-nightmare

Technical info

Input File: 02. Malignant Woman.mp3
Channels : 2
Sample Rate : 44100
Precision : 16-bit
Duration : 00:05:16.69 = 13965809 samples = 23751.4 CDDA sectors
File Size : 12.8M
Bit Rate : 322k
Sample Encoding: MPEG audio (layer I, II or III)
Comments :
Title=Malignant Woman
Artist=Kaasibal
Album=The Void Nightmare
Tracknumber=2
Year=2017



[ Hidden Text ]

Powered by Invision Power Board
© Invision Power Services