Printable Version of Topic

Click here to view this topic in its original format

Metal Area - Extreme Music Portal _ Archive _ Piss Vortex - Future Cancer [ep] (2016)

Posted by: necroscum Jan 11 2017, 14:36:52

http://metalarea.org/images/audiocovers/2017_Jan/acov_tid281238.jpg

*Artist: Piss Vortex
*Album: Future Cancer [ep]
*Year: 2016
*Genre: Grindcore
*Country: Denmark
*Format: mp3@CBR320kbps
*Size: 29MB

Tracklist:
01. Default Face/Filtered Rot 02:14
02. Den Moderne Mands Lænke 01:58
03. Bug Chaser 00:31
04. Failing The Voight-Kampff Test 02:05
05. Abyss 01:27
06. Patterns Of Repetition 03:28
******************************
Total playing time: 11:43

https://www.facebook.com/pissvortex
https://pissvortex.bandcamp.com/album/future-cancer

Technical info

Input File: 02. Den Moderne Mands L?nke.mp3
Channels : 2
Sample Rate : 44100
Precision : 16-bit
Duration : 00:01:58.14 = 5209798 samples = 8860.2 CDDA sectors
File Size : 4.97M
Bit Rate : 337k
Sample Encoding: MPEG audio (layer I, II or III)
Comments :
Title=Den Moderne Mands L├Žnke
Artist=Piss Vortex
Album=Future Cancer
Tracknumber=2
Year=2016



[ Hidden Text ]

Powered by Invision Power Board
© Invision Power Services