Printable Version of Topic

Click here to view this topic in its original format

Metal Area - Extreme Music Portal _ New Releases _ Ulv - Lysets Undergang [demo] (2017)

Posted by: AlexStorm Jan 11 2017, 14:46:00

http://metalarea.org/images/audiocovers/2017_Jan/acov_tid281239.jpg

*Artist: Ulv
*Album: Lysets Undergang [demo]
*Year: 2017
*Genre: Black Metal
*Country: Denmark
*Format: mp3@CBR320kbps
*Size: 24MB

Tracklist:
01.Lysets Undergang 03:22
02.Traelsaanden (Snestorm Part 1) 04:28
03.Falder Natten Paa (Snestorm Part 2) 02:25
******************************
Total playing time: 10:15

https://projectulv.bandcamp.com/album/lysets-undergang

Technical info

Input File: Ulv - Lysets Undergang - 01 Lysets Undergang.mp3
Channels : 2
Sample Rate : 44100
Precision : 16-bit
Duration : 00:03:22.39 = 8925355 samples = 15179.2 CDDA sectors
File Size : 8.16M
Bit Rate : 323k
Sample Encoding: MPEG audio (layer I, II or III)
Comments :
Title=Lysets Undergang
Artist=Ulv
Album=Lysets Undergang
Tracknumber=1
Year=2017



[ Hidden Text ]

Powered by Invision Power Board
© Invision Power Services