Printable Version of Topic

Click here to view this topic in its original format

Metal Area - Extreme Music Portal _ Archive _ The Green Leaves - Deforestation [ep] (2017)

Posted by: necroscum Jan 11 2017, 14:57:14

http://metalarea.org/images/audiocovers/2017_Jan/acov_tid281240.jpg

*Artist: The Green Leaves
*Album: Deforestation [ep]
*Year: 2017
*Genre: Brutal Deathcore
*Country: United States
*Format: mp3@CBR320kbps
*Size: 51MB

Tracklist:
01. Overseer 03:21
02. Ophidian (Feat. Danny Boismier) 04:28
03. Ophidian II 05:00
04. Currents 04:58
05. Deforestation 04:46
******************************
Total playing time: 22:33

https://www.facebook.com/thegreenleavesfwin/
https://thegreenleavesfwin.bandcamp.com/album/deforestation-ep
https://www.youtube.com/watch?v=Th8Q4qb0kNA

Technical info

Input File: 02. Ophidian (feat. Danny Boismier).mp3
Channels : 2
Sample Rate : 44100
Precision : 16-bit
Duration : 00:04:28.07 = 11821755 samples = 20105 CDDA sectors
File Size : 10.8M
Bit Rate : 321k
Sample Encoding: MPEG audio (layer I, II or III)
Comments :
Title=Ophidian (feat. Danny Boismier)
Artist=The Green Leaves
Album=Deforestation EP
Tracknumber=2
Year=2017



[ Hidden Text ]

Powered by Invision Power Board
© Invision Power Services