Printable Version of Topic

Click here to view this topic in its original format

Metal Area - Extreme Music Portal _ Archive _ Diabolus - Feast [ep] (2016)

Posted by: necroscum Jan 11 2017, 16:00:41

http://metalarea.org/images/audiocovers/2017_Jan/acov_tid281243.jpg

*Artist: Diabolus
*Album: Feast [ep]
*Year: 2016
*Genre: Black/Death Metal/Deathcore
*Country: United Kingdom
*Format: mp3@CBR320kbps
*Size: 40MB

Tracklist:
01. Chapter I - A Tortured Beginning 03:36
02. Chapter II - Servant Of The Devil 03:51
03. Chapter III - Demonic Submission 01:35
04. Chapter IV - Wrath Of Apollyon 04:18
05. Chapter V - Cannibal Of Siberia 04:11
******************************
Total playing time: 17:31

https://www.facebook.com/diabolusuk/
https://chugcore.bandcamp.com/album/feast-ep-2
https://www.youtube.com/watch?v=lkxSpv1vtx0

Technical info

Input File: 02. Chapter II - Servant Of The Devil.mp3
Channels : 2
Sample Rate : 44100
Precision : 16-bit
Duration : 00:03:51.96 = 10229524 samples = 17397.1 CDDA sectors
File Size : 9.37M
Bit Rate : 323k
Sample Encoding: MPEG audio (layer I, II or III)
Comments :
Title=Chapter II - Servant Of The Devil
Artist=Diabolus
Album=Feast EP
Tracknumber=2
Year=2016



[ Hidden Text ]

Posted by: varlam4 Mar 7 2017, 22:03:07

[ Hidden Text ] 320

Powered by Invision Power Board
© Invision Power Services