Printable Version of Topic

Click here to view this topic in its original format

Metal Area - Extreme Music Portal _ Archive _ Thy Coprophagist - TxC [ep] (2017)

Posted by: necroscum Jan 11 2017, 16:50:54

http://metalarea.org/images/audiocovers/2017_Jan/acov_tid281244.jpg

*Artist: Thy Coprophagist
*Album: TxC [ep]
*Year: 2017
*Genre: Goregrind/Coprogrind
*Country: Sweden
*Format: mp3@CBR320kbps
*Size: 15MB

Tracklist:
01. Shitfun 01:24
02. Shit-Monster Fun-Time 01:31
03. Tools For Bludgeoning Your Enemies 01:09
04. Shit-Splattered Satisfaction (Waking The Cadaver Cover) (Bonus Track) 02:27
******************************
Total playing time: 6:31

https://thycoprophagist.bandcamp.com/album/txc-ep
https://www.youtube.com/watch?v=VZUV1HcdBqc

Technical info

Input File: 02. Shit-monster Fun-time.mp3
Channels : 2
Sample Rate : 44100
Precision : 16-bit
Duration : 00:01:31.54 = 4036958 samples = 6865.57 CDDA sectors
File Size : 3.80M
Bit Rate : 332k
Sample Encoding: MPEG audio (layer I, II or III)
Comments :
Title=Shit-monster Fun-time
Artist=Thy Coprophagist
Album=TxC EP
Tracknumber=2
Year=2017



[ Hidden Text ]

Powered by Invision Power Board
© Invision Power Services