Printable Version of Topic

Click here to view this topic in its original format

Metal Area - Extreme Music Portal _ Archive _ Stinking Lizaveta - Journey To The Underworld (2017)

Posted by: aesteticvice Feb 17 2017, 08:16:09

https://metalarea.org/images/audiocovers/2017_Feb/acov_tid283677.jpg

*Artist: https://metalarea.org/forum/index.php?showtopic=18812
*Album: Journey To The Underworld
*Year: 2017
*Genre: Progressive/Stoner Metal/Rock
*Country: United States
*Format: mp3@CBR320kbps
*Size: 80MB

Tracklist:
1. Witches and Pigs 03:44
2. Chorus of Shades 03:00
3. Sharp Stick in the Eye 04:13
4. Six Fangs 04:11
5. Blood, Milk and Honey 04:57
6. Journey to the Underworld 06:56
7. Love Song for Jusu 03:53
8. A Stranger's Welcome 04:06
9. Allegro 01:28
******************************
Total playing time: 36:28

https://www.facebook.com/Stinking-Lizaveta-175571942466657

Extended info
Cheshire Agusta - Drums (1994-present)
Yanni Papadopoulos - Guitars (1994-present) See also: ex-Striga
Alexi Papadopoulos - Upright Electric Bass (1994-present)


Technical info

Input File: 02 - Chorus of Shades.mp3
Channels : 2
Sample Rate : 44100
Precision : 16-bit
Duration : 00:03:00.55 = 7962343 samples = 13541.4 CDDA sectors
File Size : 7.40M
Bit Rate : 328k
Sample Encoding: MPEG audio (layer I, II or III)
Comments :
Title=Chorus of Shades
Artist=Stinking Lizaveta
Album=Journey to the Underworld
Tracknumber=2/9
Year=2017
Genre=9



[ Hidden Text ]

Posted by: Tular Feb 17 2017, 11:29:41

Антивирус ругается

Posted by: AHBAnep Feb 17 2017, 18:43:23

Все ругаются - это же инструментал?

Powered by Invision Power Board
© Invision Power Services