Printable Version of Topic

Click here to view this topic in its original format

Metal Area - Extreme Music Portal _ New Releases _ Innermoon - Cloud Walkers (2017)

Posted by: Andrew Sep 12 2017, 14:42:05

http://metalarea.org/images/audiocovers/2017_Sep/acov_tid294497.jpg

*Artist: Innermoon
*Album: Cloud Walkers
*Year: 2017
*Genre: Melodic Death Metal/Metalcore
*Country: France
*Format: mp3@CBR320kbps
*Size: 102MB

Tracklist:
1. Sleeping's End 01:25
2. Harmony 07:50
3. Children of the Moon 05:33
4. From Nothing 01:29
5. Pride 05:44
6. Will to Live 04:29
7. Fallen 08:26
8. The End 03:43
******************************
Total playing time: 38:39

https://www.youtube.com/watch?time_continue=284&v=YylyD4knOvM
https://innermoon.bandcamp.com/album/cloud-walkers-2

Technical info

Input File: Innermoon - Cloud Walkers - 02 Harmony.mp3
Channels : 2
Sample Rate : 44100
Precision : 16-bit
Duration : 00:07:50.28 = 20739216 samples = 35270.8 CDDA sectors
File Size : 18.9M
Bit Rate : 322k
Sample Encoding: MPEG audio (layer I, II or III)
Comments :
Title=Harmony
Artist=Innermoon
Album=Cloud Walkers
Tracknumber=02
Year=2017



[ Hidden Text ]

Posted by: DenisKov Sep 15 2017, 07:47:54

Третьесорт, на раз послушать - норм.

Powered by Invision Power Board
© Invision Power Services