Printable Version of Topic

Click here to view this topic in its original format

Metal Area - Extreme Music Portal _ New Releases _ Czarnobog - Eastern Barbarian Cult (2017)

Posted by: Velmi Sep 12 2017, 19:50:07

http://metalarea.org/images/audiocovers/2017_Sep/acov_tid294517.jpg

*Artist: http://metalarea.org/forum/index.php?showtopic=294769
*Album: Eastern Barbarian Cult
*Year: 2017
*Genre: Raw Black Metal
*Country: Germany
*Format: mp3@CBR320kbps
*Size: 121MB

Tracklist:
1. Ancient Scrolls of Stardust
2. Temple of Dead Sun
3. I Summon the Ravens of Lunar Shadows
4. Scythian Black Winter
5. Through the Epic Forest of Hyperborea
6. Eastern Barbarian Cult
7. Guardians of Slavonic Moon Shrine
8. Untitled Track
******************************
Total playing time: 48:55

https://czarnobog.bandcamp.com/

Extended info
Dark Ritual - D.R. 24
Tape limited to 100 copies

Tape-rip + Scans
KVLT!


Technical info

Input File: B2. Eastern Barbarian Cult.mp3
Channels : 2
Sample Rate : 48000
Precision : 16-bit
Duration : 00:06:14.04 = 17954064 samples ~ 28053.2 CDDA sectors
File Size : 15.2M
Bit Rate : 324k
Sample Encoding: MPEG audio (layer I, II or III)
Comments :
Title= Eastern Barbarian Cult
Artist=Czarnobog
Album=Eastern Barbarian Cult
Tracknumber=06/08
Year=2017
Genre=Black Metal



[ Hidden Text ]

Posted by: DarkHorde Sep 17 2017, 13:48:13

По превью ваще круто! true_black.gif

Powered by Invision Power Board
© Invision Power Services