Printable Version of Topic

Click here to view this topic in its original format

Metal Area - Extreme Music Portal _ New Releases _ Scarlet Host - Black Days (2018)

Posted by: aesteticvice Apr 15 2018, 09:08:49

https://metalarea.org/images/audiocovers/2018_Apr/acov_tid304697.jpg

*Artist: Scarlet Host
*Album: Black Days
*Year: 2018
*Genre: Extreme Progressive Metal
*Country: United Kingdom
*Format: mp3@CBR320kbps
*Size: 127MB

Tracklist:
01. Bad Intentions 01:36
02. Walk The Line 04:02
03. Pushing Me Down 05:08
04. One Hour 05:39
05. Damn You 06:10
06. Parasite 06:00
07. Insecurities 04:31
08. Odd Times 04:36
09. In Disguise 05:09
10. Altered State of Denial 06:15
11. Now What? 05:48
******************************
Total playing time: 54:54

https://www.facebook.com/scarlethostrock/
https://scarlethost.bandcamp.com/album/black-days

Extended info
Kevin Jardim - Guitars, Bass, Keyboards
Dino Jardim - Drums
Lindsey Roussouw - Vocals




Technical info

Input File: 02. Walk The Line.mp3
Channels : 2
Sample Rate : 44100
Precision : 16-bit
Duration : 00:04:02.44 = 10691692 samples = 18183.1 CDDA sectors
File Size : 9.77M
Bit Rate : 322k
Sample Encoding: MPEG audio (layer I, II or III)
Comments :
Title=Walk The Line
Artist=Scarlet Host
Album=Black Days
Tracknumber=02/11
Year=2018
Genre=Metal



[ Hidden Text ]

Posted by: aesteticvice Apr 15 2018, 09:55:48

уточню по жанру, тут мелодичный "лепрос" прог метал с вкраплениями прог дэт/трэша
MIRROR
[ Hidden Text ]

Posted by: Immolator Apr 15 2018, 17:58:41

Все бы ничего, но рэп с**а убивает напрочь.

Posted by: Skyggedans Apr 16 2018, 14:10:35

Линкин парк какой-то. Что оно в формате делает?

Posted by: Yarri May 2 2018, 12:30:34

ЦИТАТА(aesteticvice @ Apr 15 2018, 11:55:48) *
уточню по жанру, тут мелодичный "лепрос" прог метал с вкраплениями прог дэт/трэша

Соглашусь. Продукт интересный.

Powered by Invision Power Board
© Invision Power Services