Printable Version of Topic

Click here to view this topic in its original format

Metal Area - Extreme Music Portal _ New Releases _ Der Tod - Der Tod [demo] (1998)

Posted by: Borderline1991 Apr 15 2018, 09:08:50

http://metalarea.org/images/audiocovers/2018_Apr/acov_tid304698.jpg

*Artist: Der Tod
*Album: Der Tod [demo]
*Year: 1998
*Genre: Black/Dark Metal
*Country: Germany
*Format: mp3@CBR320kbps
*Size: 57MB

Tracklist:
1. Doomed - Intro 01:04
2. Soul Cage 03:20
3. Lost in Life 03:58
4. Loneliness 04:55
5. Lebensmüde 04:02
6. Afraid to die 04:49
7. Broken Hope 00:19
8. Der Tod goes Punk (Fuck off trendy Bastards!!!) 02:15
******************************
Total playing time: 24:42

Technical info

Input File: 03 - Lost In Life.mp3
Channels : 2
Sample Rate : 44100
Precision : 16-bit
Duration : 00:03:58.68 = 10525656 samples = 17900.8 CDDA sectors
File Size : 9.55M
Bit Rate : 320k
Sample Encoding: MPEG audio (layer I, II or III)
Comments :
Title=Lost In Life
Artist=Der Tod
Album=Der Tod
Tracknumber=3
Year=1998
Genre=Black Metal



[ Hidden Text ]

Powered by Invision Power Board
© Invision Power Services