Printable Version of Topic

Click here to view this topic in its original format

Metal Area - Extreme Music Portal _ New Releases _ Black Mass Confession - Fury (2018)

Posted by: aesteticvice Apr 15 2018, 09:23:45

https://metalarea.org/images/audiocovers/2018_Apr/acov_tid304699.jpg

*Artist: Black Mass Confession
*Album: Fury
*Year: 2018
*Genre: Groove/Southern Metal
*Country: United States
*Format: mp3@CBR320kbps
*Size: 137MB

Tracklist:
01. Come Get Some
02. After Forever
03. Bare Another Cross
04. Forever Strong
05. None Shall Remain
06. Wake of Aggression
07. Fury
08. Explode
09. Refuse to Fall
10. Random Acts of Violence
11. My Soul to Take
12. Never Back Down
******************************
Total playing time: 1:00:17

Extended info


Technical info

Input File: 07. Fury.mp3
Channels : 2
Sample Rate : 44100
Precision : 16-bit
Duration : 00:04:12.66 = 11142174 samples = 18949.3 CDDA sectors
File Size : 10.1M
Bit Rate : 320k
Sample Encoding: MPEG audio (layer I, II or III)
Comments :
Title=Fury
Artist=Black Mass Confession
Album=Fury
Tracknumber=7/12
Year=2018



[ Hidden Text ]

Powered by Invision Power Board
© Invision Power Services