Printable Version of Topic

Click here to view this topic in its original format

Metal Area - Extreme Music Portal _ New Releases _ Urfaust & Ghoul-Cult - Ghoulfaust [split] (2016)

Posted by: Borderline1991 Apr 15 2018, 09:25:11

http://metalarea.org/images/audiocovers/2018_Apr/acov_tid304700.jpg

*Artist: http://metalarea.org/forum/index.php?showtopic=52079 & Ghoul-Cult
*Album: Ghoulfaust [split]
*Year: 2016
*Genre: Black Metal/Ambient | Black/Doom/Thrash Metal
*Country: Netherlands | Norway
*Format: mp3@VBR260kbps
*Size: 25MB

Tracklist:
Urfaust:
1. Vom Freien Tode 07:43
Ghoul-Cult:
2. To the Tombs 05:37
******************************
Total playing time: 13:20

Technical info

Input File: 02 To The Tombs.mp3
Channels : 2
Sample Rate : 44100
Precision : 16-bit
Duration : 00:05:37.11 = 14866551 samples = 25283.2 CDDA sectors
File Size : 10.9M
Bit Rate : 258k
Sample Encoding: MPEG audio (layer I, II or III)
Comments :
Title=To The Tombs
Artist=Ghoul-Cult
Album=Ghoulfaust
Tracknumber=02/2
Year=2016
Discnumber=1/1



[ Hidden Text ]

Powered by Invision Power Board
© Invision Power Services