Printable Version of Topic

Click here to view this topic in its original format

Metal Area - Extreme Music Portal _ Archive _ Winter Blackness - Freezing Aura Of Blackened Depths (2017)

Posted by: Borderline1991 Apr 15 2018, 09:33:16

http://metalarea.org/images/audiocovers/2018_Apr/acov_tid304701.jpg

*Artist: Winter Blackness
*Album: Freezing Aura Of Blackened Depths
*Year: 2017
*Genre: Black Metal
*Country: Poland
*Format: mp3@CBR320kbps
*Size: 101MB

Tracklist:
1. Triumf nocnego przymierza 08:10
2. W otchłani wilczej przemiany 06:40
3. Zimowy rytuał spopielenia 07:34
4. Wędrując przez cienie ponurego księżyca 10:40
5. The Lost Forgotten Sad Spirit (Burzum cover) 11:05
******************************
Total playing time: 44:09

Extended info
Darker than Black Records CD, 500 copies. Also released by Tour de Garde on cassette.
Many thanks to sumeriarising for the rip!


Technical info

Input File: 01 Triumf nocnego przymierza.mp3
Channels : 2
Sample Rate : 44100
Precision : 16-bit
Duration : 00:08:10.21 = 21618129 samples = 36765.5 CDDA sectors
File Size : 19.6M
Bit Rate : 320k
Sample Encoding: MPEG audio (layer I, II or III)
Comments :
Title=Triumf nocnego przymierza
Artist=Winter Blackness
Album=Freezing Aura of Blackened Depths
Tracknumber=1
Year=2017
Genre=Black Metal



[ Hidden Text ]

Posted by: Orkkh Apr 16 2018, 08:40:05

мощнячком! banana.gif true_black.gif
https://www.youtube.com/watch?v=Lsw6muMVJeo

Posted by: SSWolf88 Apr 18 2018, 10:02:34

Очередной зашифровавшийся польский нсбм? 1488.gif

Powered by Invision Power Board
© Invision Power Services