Printable Version of Topic

Click here to view this topic in its original format

Metal Area - Extreme Music Portal _ New Releases _ The Elysian Fields - Promo Tape [demo] (1995)

Posted by: Borderline1991 Apr 15 2018, 09:45:28

http://metalarea.org/images/audiocovers/2018_Apr/acov_tid304702.jpg

*Artist: http://metalarea.org/forum/index.php?showtopic=29097
*Album: Promo Tape [demo]
*Year: 1995
*Genre: Melodic Death/Black Metal
*Country: Greece
*Format: mp3@CBR320kbps
*Size: 27MB

Tracklist:
1. Elysian Fields 05:54
2. Father Forgive Them (For They Do Not Know) 05:50
******************************
Total playing time: 11:44

Extended info
Released under the band name "Elysian Fields".


Technical info

Input File: 01 - Elysian Fields.mp3
Channels : 2
Sample Rate : 44100
Precision : 16-bit
Duration : 00:05:54.10 = 15615634 samples = 26557.2 CDDA sectors
File Size : 14.2M
Bit Rate : 320k
Sample Encoding: MPEG audio (layer I, II or III)
Comments :
Title=Elysian Fields
Artist=Elysian Fields
Album=Promo Tape
Tracknumber=1
Year=1995
Genre=Death Metal



[ Hidden Text ]

Powered by Invision Power Board
© Invision Power Services