Printable Version of Topic

Click here to view this topic in its original format

Metal Area - Extreme Music Portal _ New Releases _ Mask Of Prospero - The Observatory (2018)

Posted by: aesteticvice Apr 15 2018, 12:46:02

https://metalarea.org/images/audiocovers/2018_Apr/acov_tid304705.jpg

*Artist: Mask Of Prospero
*Album: The Observatory
*Year: 2018
*Genre: Atmospheric/Modern Progressive Metal
*Country: Greece
*Format: mp3@CBR320kbps
*Size: 81MB

Tracklist:
01. Dust in the Sky
02. Drown in Grey
03. Frozen in Time
04. The Portrait
05. The Journey
06. The Way Back Home
07. The Observatory
08. Ignorance
09. This Road Leads to Desolation
******************************
Total playing time: 35:13

https://www.facebook.com/pg/maskofprosperoofficial/about/?ref=page_internal
https://maskofprospero.bandcamp.com/album/the-observatory

Extended info
Mask of Prospero, a modern extreme progressive/atmospheric metal band from Athens, Greece. Our music draws influences from bands like TesseracT, Leprous, Gojira, The Ocean, Silent Planet and Russian Circles.
Biller Perakis - Bass
Eleni Nota - Drums (Lightfold, Simplefast)
Nikos Letsios - Guitars
Panagiotis Kottaras - Guitars
Chris Kontoulis - Vocals (ex-Fallen Arise)



Technical info

Input File: 04 - Portrait.mp3
Channels : 2
Sample Rate : 44100
Precision : 16-bit
Duration : 00:00:00.24 = 10496 samples = 17.8503 CDDA sectors
File Size : 9.61M
Bit Rate : 323M
Sample Encoding: MPEG audio (layer I, II or III)
Comments :
Title=Portrait
Artist=Mask Of Prospero
Album=The Observatory
Tracknumber=4/9
Year=2018-18-20
Genre=Progressive Metal
Discnumber=1/1



[ Hidden Text ]

Posted by: aesteticvice Apr 15 2018, 17:44:47

mirror
[ Hidden Text ]

Posted by: babanguida Apr 15 2018, 20:36:18


Powered by Invision Power Board
© Invision Power Services