Printable Version of Topic

Click here to view this topic in its original format

Metal Area - Extreme Music Portal _ Archive _ Mortuus Umbra - Catechism [ep] (2015)

Posted by: Velmi Apr 15 2018, 13:58:23

http://metalarea.org/images/audiocovers/2018_Apr/acov_tid304706.jpg

*Artist: Mortuus Umbra
*Album: Catechism [ep]
*Year: 2015
*Genre: Black Metal
*Country: Israel
*Format: mp3@VBR245kbps
*Size: 44MB

Tracklist:
1. XI VSN / Holy Procreation 08:31
2. Mother of All Nightmares 04:47
3. Omen to the Ancient One 05:15
4. Mors Stillam 03:58
******************************
Total playing time: 22:31

https://mortuusumbra.bandcamp.com/album/catechism

Extended info
Oration - ORA0011, vinyl, 2018.


Technical info

Input File: 01. XI VSN - Holy Procreation.mp3
Channels : 2
Sample Rate : 44100
Precision : 16-bit
Duration : 00:08:31.06 = 22537702 samples = 38329.4 CDDA sectors
File Size : 16.8M
Bit Rate : 263k
Sample Encoding: MPEG audio (layer I, II or III)
Comments :
Title=XI VSN / Holy Procreation
Artist=Mortuus Umbra
Album=Catechism
Tracknumber=01/04
Year=2018
Genre=Black Metal
Discnumber=1/1



[ Hidden Text ]

Powered by Invision Power Board
© Invision Power Services