Printable Version of Topic

Click here to view this topic in its original format

Metal Area - Extreme Music Portal _ New Releases _ Cremantur - The Prize Of Treason (2018)

Posted by: Velmi Apr 15 2018, 14:09:19

http://metalarea.org/images/audiocovers/2018_Apr/acov_tid304707.jpg

*Artist: Cremantur
*Album: The Prize Of Treason
*Year: 2018
*Genre: Raw Black Metal
*Country: United States
*Format: mp3@VBR245kbps
*Size: 62MB

Tracklist:
1. Sharpening Blades
2. Burner Of Human Flesh
3. Merciless Rabid Persecution
4. Stirring The Flames Of Revenge
5. Behold The Blood Drenched Earth
6. Cruel Obedience
7. Unearthing Coffins
8. Death Stalker
9. The Invocation
10. Outer Body Visions
11. Your Destruction, Our Power
12. Nocturnal Fears
******************************
Total playing time: 32:13

Extended info
Perverse Homage - 031, tape, 2018.


Technical info

Input File: 02. Burner Of Human Flesh.mp3
Channels : 2
Sample Rate : 44100
Precision : 16-bit
Duration : 00:01:39.60 = 4392536 samples = 7470.3 CDDA sectors
File Size : 3.40M
Bit Rate : 273k
Sample Encoding: MPEG audio (layer I, II or III)
Comments :
Title=Burner Of Human Flesh
Artist=Cremantur
Album=The Prize Of Treason
Tracknumber=02/12
Year=2018
Genre=Black Metal
Discnumber=1/1



[ Hidden Text ]

Powered by Invision Power Board
© Invision Power Services