Printable Version of Topic

Click here to view this topic in its original format

Metal Area - Extreme Music Portal _ New Releases _ Fall Of Carthage - Emma Green (2018)

Posted by: RotAnus Apr 15 2018, 16:18:27

https://metalarea.org/images/audiocovers/2018_Apr/acov_tid304709.jpg

*Artist: Fall Of Carthage
*Album: Emma Green
*Year: 2018
*Genre: Groove Metal/Hardcore
*Country: Germany
*Format: mp3@CBR320kbps
*Size: 72MB

Tracklist:
01. Signs Of Corruption
02. Priceless
03. Superior
04. Down There
05. Emma Green
06. Lies In Your Cup
07. Belongings
08. F.A. Gov
09. Dollarhungry
******************************
Total playing time: 30:42

https://www.facebook.com/pg/FallOfCarthage/about/?ref=page_internal

Technical info

Input File: 6 Lies in your Cup.mp3
Channels : 2
Sample Rate : 44100
Precision : 16-bit
Duration : 00:03:23.46 = 8972718 samples = 15259.7 CDDA sectors
File Size : 8.32M
Bit Rate : 327k
Sample Encoding: MPEG audio (layer I, II or III)
Comments :
Title=Lies in your Cup
Artist=Fall Of Carthage
Album=Emma Green
Tracknumber=6/9
Year=2018
Genre=9
Discnumber=1/1



[ Hidden Text ]

Powered by Invision Power Board
© Invision Power Services