Printable Version of Topic

Click here to view this topic in its original format

Metal Area - Extreme Music Portal _ New Releases _ Abandoned Mortuary - Race Of Hypocrisy (2018)

Posted by: Necrokilldozer Apr 15 2018, 17:36:01

http://metalarea.org/images/audiocovers/2018_Apr/acov_tid304711.jpg

*Artist: Abandoned Mortuary
*Album: Race Of Hypocrisy
*Year: 2018
*Genre: Death Metal/Grindcore
*Country: Hungary
*Format: mp3@CBR320kbps
*Size: 81MB

Tracklist:
1. Unheard Screams 01:09
2. Sacrifice to Moloch 04:36
3. Race of Hypocrisy 05:25
4. Perishing Hope 03:17
5. Altar of the Golden Calf 03:16
6. King of Grass 02:21
7. Unseen 06:01
8. A Voice in the Desert 00:25
9. Deep Secrets 03:21
10. Dry Bones 04:50
******************************
Total playing time: 34:41

https://abran.bandcamp.com/album/race-of-hypocrisy

Extended info
Line - up:

Gergely Kovács - Vocals, Guitars, Bass, Drum programming (Internal Excavation, Irgalom, Number Our Days, The Exit Wound, Parched Throat, The Arbiter, The Grey Eminence, Varsa, ex-Atavism, ex-Devon, ex-The Wheelers)



Technical info

Input File: 05. Altar Of The Golden Calf.mp3
Channels : 2
Sample Rate : 48000
Precision : 16-bit
Duration : 00:03:16.37 = 9425808 samples ~ 14727.8 CDDA sectors
File Size : 7.86M
Bit Rate : 320k
Sample Encoding: MPEG audio (layer I, II or III)
Comments :
Title=Altar Of The Golden Calf
Artist=Abandoned Mortuary
Album=Race Of Hypocrisy
Tracknumber=5
Year=2018
Genre=Death Metal / Grindcore



[ Hidden Text ]

Powered by Invision Power Board
© Invision Power Services