Printable Version of Topic

Click here to view this topic in its original format

Metal Area - Extreme Music Portal _ New Releases _ Hooch Head - Mercy [ep] (2018)

Posted by: Necrokilldozer Apr 15 2018, 17:58:27

http://metalarea.org/images/audiocovers/2018_Apr/acov_tid304712.jpg

*Artist: Hooch Head
*Album: Mercy [ep]
*Year: 2018
*Genre: Sludge/Stoner Metal
*Country: United States
*Format: mp3@CBR320kbps
*Size: 52MB

Tracklist:
1. Witch Prayer 04:09
2. Space Huffer 05:17
3. Derision 03:15
4. Wormed 02:36
5. Skinsman 06:45
******************************
Total playing time: 22:02

https://hoochhead.bandcamp.com/releases

Technical info

Input File: 05. Skinsman.mp3
Channels : 2
Sample Rate : 48000
Precision : 16-bit
Duration : 00:06:45.07 = 19443600 samples ~ 30380.6 CDDA sectors
File Size : 16.2M
Bit Rate : 320k
Sample Encoding: MPEG audio (layer I, II or III)
Comments :
Title=Skinsman
Artist=Hooch Head
Album=Mercy (EP)
Tracknumber=5
Year=2018
Genre=Sludge / Stoner Metal



[ Hidden Text ]

Powered by Invision Power Board
© Invision Power Services