Printable Version of Topic

Click here to view this topic in its original format

Metal Area - Extreme Music Portal _ New Releases _ Suici.De.Pression - Suici.De.Pression (2017)

Posted by: Samaritianin Apr 15 2018, 21:42:06

http://metalarea.org/images/audiocovers/2018_Apr/acov_tid304717.jpg

*Artist: Suici.De.Pression
*Album: Suici.De.Pression
*Year: 2017
*Genre: Black Metal
*Country: Italy
*Format: mp3@VBR278kbps
*Size: 75MB

Tracklist:
1. De.Pression 20:17
2. Despair 10:06
3. Paranoia 07:57
******************************
Total playing time: 38:20

https://maamusic.bandcamp.com/album/suici-de-pression

Extended info
Scene CD-Rip
Syrinx All instruments, Vocals, Lyrics


Technical info

Input File: 03-suicidepression-paranoia.mp3
Channels : 2
Sample Rate : 44100
Precision : 16-bit
Duration : 00:07:59.00 = 21123900 samples = 35925 CDDA sectors
File Size : 17.4M
Bit Rate : 291k
Sample Encoding: MPEG audio (layer I, II or III)
Comments :
Title=Paranoia
Artist=Suici.De.Pression
Album=Suici.De.Pression
Tracknumber=3/3
Year=2017-00-00
Genre=Black Metal



[ Hidden Text ]

Powered by Invision Power Board
© Invision Power Services