Printable Version of Topic

Click here to view this topic in its original format

Metal Area - Extreme Music Portal _ New Releases _ Diligence - Abundance In Exertion (2018)

Posted by: Samaritianin Apr 15 2018, 23:34:51

http://metalarea.org/images/audiocovers/2018_Apr/acov_tid304718.jpg

*Artist: Diligence
*Album: Abundance In Exertion
*Year: 2018
*Genre: Death Metal
*Country: Czech Republic
*Format: mp3@CBR320kbps
*Size: 110MB

Tracklist:
1. This Queue Metaphor 05:06
2. Bleeding Fractals 04:02
3. Intersection of Free Empathy 03:50
4. Through Black Aura 05:16
5. Into Hydra's Lair 06:02
6. In Stillness 03:28 instrumental
7. Conclave of Doubts 04:09
8. Violent Regeneration 05:03
9. Hypothermia 04:17
10. Lifetime of Obsidian Verity 05:48
******************************
Total playing time: 47:01

https://diligencemetal.bandcamp.com/
http://bandzone.cz/diligence
https://www.facebook.com/diligenceband

Extended info
Milan - Bass (Devast)
Honza - Drums
Igor - Guitars (Demimonde, The Corona Lantern)
Dája - Vocals, Lyrics (Keep on Rotting, The Corona Lantern)
Jakub Durec - Guitars (Soul Decoder)


Technical info

Input File: 02 - Bleeding Fractals.mp3
Channels : 2
Sample Rate : 44100
Precision : 16-bit
Duration : 00:04:02.94 = 10713566 samples = 18220.4 CDDA sectors
File Size : 9.92M
Bit Rate : 327k
Sample Encoding: MPEG audio (layer I, II or III)
Comments :
Title=Bleeding Fractals
Artist=Diligence
Album=Abundance In Exertion
Tracknumber=02/10
Year=2018
Genre=Progressive Death Metal



[ Hidden Text ]

Posted by: Samaritianin Apr 16 2018, 02:23:31

[ Hidden Text ]

Posted by: aesteticvice Apr 16 2018, 05:39:00

Modern death metal - притехниченно, придэткоренно и с типичной рычащей теткой на вокале... в обчем без грува и модерн фишек былоб более чем неплохо... но, что есть, два стула, для мейнстрим дэта наверно нормально, если есть такой.

Posted by: Samaritianin Apr 16 2018, 06:36:28

ЦИТАТА(aesteticvice @ 16th April 2018 - 05:39:00) *
Modern death metal - притехниченно, придэткоренно и с типичной рычащей теткой на вокале... в обчем без грува и модерн фишек былоб более чем неплохо... но, что есть, два стула, для мейнстрим дэта наверно нормально, если есть такой.

Твои завистливые испражнения -ожидаемы!Так же как и твои сочинения в твоих подобных темах)))
[ Hidden Text ]
на нем совсем другая музыка и вокал, пропали брейки, стало больше скорости и тех наворотов, вокал теперь без воплей и грубее, 15.gif
завистливые-потому что если бы ты его постил,то я уверен что теги были бы прог дет как минимум,если ты такое груво-деткоровище называешь техно детом 1488.gif bye.gif

Posted by: aesteticvice Apr 16 2018, 07:00:58

ЦИТАТА(Samaritianin @ Apr 16 2018, 05:36:28) *
завистливые

завистливые

"Не надо мне по два раза повторять одно и то же! Мне и с первого раза до фонаря." ©

Powered by Invision Power Board
© Invision Power Services