Printable Version of Topic

Click here to view this topic in its original format

Metal Area - Extreme Music Portal _ Archive _ Red Soil - Nemesis (2018)

Posted by: Samaritianin Apr 16 2018, 01:31:33

http://metalarea.org/images/audiocovers/2018_Apr/acov_tid304720.jpg

*Artist: Red Soil
*Album: Nemesis
*Year: 2018
*Genre: Modern Melodic Death Metal
*Country: Spain
*Format: mp3@CBR320kbps
*Size: 67MB

Tracklist:
01. Chaos
02. The Stolen Paradise
03. Overrated
04. Age of Rebelion
05. Heroes
06. Shattered Light
07. My Name, my Enemy
08. The Story About Faith
******************************
Total playing time: 31:30

https://www.facebook.com/redsoilofficial

Extended info
Néstor Balaguer (vocals)
·Fabio Doppioni (rhythm guitar)
·Aitor Yerbes (lead guitar)
·Álvaro Pros (bass)
·Guillem Chesa (drums)
·Néstor Viciano (keys&Fx's)



Technical info

Input File: 03 Overrated.mp3
Channels : 2
Sample Rate : 44100
Precision : 16-bit
Duration : 00:04:22.40 = 11571884 samples = 19680.1 CDDA sectors
File Size : 10.6M
Bit Rate : 322k
Sample Encoding: MPEG audio (layer I, II or III)
Comments :
Title=Overrated
Artist=Red Soil
Album=Nemesis
Tracknumber=3/8
Year=2018
Genre=Metal
Discnumber=1/1



[ Hidden Text ]

Posted by: Samaritianin Apr 16 2018, 02:20:48

[ Hidden Text ]

Posted by: Andrew Apr 16 2018, 07:48:31

Капец какой противный оруще-кричащий вокал fear.gif

Posted by: Foneg Apr 16 2018, 13:01:12

ЦИТАТА(Andrew @ Apr 16 2018, 09:48:31) *
Капец какой противный оруще-кричащий вокал fear.gif


Я держался пару песен - музыка тащит, но вокал кнеш долго не могу слушать smile2.gif

Posted by: 6666666 Apr 16 2018, 13:12:55

Тут нужен Мимитрий.

Posted by: fateefffddd Apr 16 2018, 18:09:53

вокал действительно ужасный

Powered by Invision Power Board
© Invision Power Services