Printable Version of Topic

Click here to view this topic in its original format

Metal Area - Extreme Music Portal _ New Releases _ Nefilim - Cataclismo Social (2018)

Posted by: Samaritianin Apr 16 2018, 05:01:38

http://metalarea.org/images/audiocovers/2018_Apr/acov_tid304722.jpg

*Artist: Nefilim
*Album: Cataclismo Social
*Year: 2018
*Genre: Thrash/Death Metal
*Country: Nicaragua
*Format: mp3@CBR320kbps
*Size: 100MB

Tracklist:
1. El Fruto del Odio 01:22
2. Cataclismo Social 03:29
3. Esvastico Tirano 05:01
4. Monopolio 04:53
5. El Umbral de la Muerte 04:07
6. En los Cimientos de la Destrucción 03:56
7. El Demonio de las Brumas 04:15
8. Programa Amorterazo 04:48
9. En los Ochentas 05:44
10. Ecos de Muerte 05:34
******************************
Total playing time: 43:09

https://nefilimthrashdeath.bandcamp.com/releases
https://www.facebook.com/nefilimnica

Extended info
Cristopher Lopez Bass
Ricardo Antonio Drums
Dani Lopez Guitars
Juan Carlos Hernandez Vocals (lead)


Technical info

Input File: 03 - Esvastico Tirano.mp3
Channels : 2
Sample Rate : 44100
Precision : 16-bit
Duration : 00:05:01.48 = 13295312 samples = 22611.1 CDDA sectors
File Size : 12.2M
Bit Rate : 324k
Sample Encoding: MPEG audio (layer I, II or III)
Comments :
Title=Esvastico Tirano
Artist=Nefilim
Album=Cataclismo Social
Tracknumber=3/10
Year=2018



[ Hidden Text ]

Posted by: Samaritianin Apr 16 2018, 09:20:24

[ Hidden Text ]

Powered by Invision Power Board
© Invision Power Services