Printable Version of Topic

Click here to view this topic in its original format

Metal Area - Extreme Music Portal _ New Releases _ Cianuro - Resistencia (2018)

Posted by: Samaritianin Apr 16 2018, 05:24:30

http://metalarea.org/images/audiocovers/2018_Apr/acov_tid304723.jpg

*Artist: Cianuro
*Album: Resistencia
*Year: 2018
*Genre: Thrash Metal/Crossover
*Country: Chile
*Format: mp3@CBR320kbps
*Size: 60MB

Tracklist:
1. Traficante 03:10
2. Resistencia 03:03
3. Paranoia, Muerte y Soledad 04:24
4. Medios de Control 01:41
5. Pateando Ratas 02:16 instrumental
6. Parasito 03:40
7. Ambición 03:58
8. Mientes 03:26
******************************
Total playing time: 25:38

https://cianuro.bandcamp.com/album/resistencia
https://www.facebook.com/cianuro.banda

Extended info
Manuel Belmar Bass (2012-present)
See also: Agresor
Sebastian Torres Drums (2012-present)
Matías Valdés Guitars, Vocals (2012-present)


Technical info

Input File: 02 - Resistencia.mp3
Channels : 2
Sample Rate : 44100
Precision : 16-bit
Duration : 00:03:03.97 = 8113121 samples = 13797.8 CDDA sectors
File Size : 7.55M
Bit Rate : 328k
Sample Encoding: MPEG audio (layer I, II or III)
Comments :
Title=Resistencia
Artist=Cianuro
Album=Resistencia
Tracknumber=2/8
Year=2018



[ Hidden Text ]

Posted by: Samaritianin Apr 16 2018, 09:18:37

[ Hidden Text ]

Powered by Invision Power Board
© Invision Power Services