Printable Version of Topic

Click here to view this topic in its original format

Metal Area - Extreme Music Portal _ New Releases _ Tomorrow's Outlook - A Voice Unheard (2018)

Posted by: Samaritianin Apr 16 2018, 05:57:45

http://metalarea.org/images/audiocovers/2018_Apr/acov_tid304725.jpg

*Artist: Tomorrow's Outlook
*Album: A Voice Unheard
*Year: 2018
*Genre: Progressive Power Metal
*Country: Norway
*Format: mp3@CBR320kbps
*Size: 166MB

Tracklist:
1. Within the World of Dreams 05:02
2. Descent 05:20
3. Through Shuttered Eyes 04:02
4. A Voice Unheard 05:34
5. Outlaw 05:32
6. Times of War 06:55
7. The Enemy 06:40
8. One Final Prayer 05:58
9. Fly Away 05:56
10. Nothing Shall Remain 06:59
11. Darkside of Aquarius (Bruce Dickinson cover) 06:53
12. Slave to the Evil Force (Aria cover) 06:52
******************************
Total playing time: 1:11:43

https://www.facebook.com/tomorrowsoutlook/

Extended info
Øystein K. Hanssen Guitars (lead)
See also: Cyclophonia, ex-Cat Eye, ex-Dominion Red
Tony "Thunder" Johannessen Vocals
See also: Thunderbolt
Andreas Stenseth Bass, Songwriting (2007-present)
See also: ex-Flame Thrower



Technical info

Input File: 02 - Descent.mp3
Channels : 2
Sample Rate : 44100
Precision : 16-bit
Duration : 00:05:20.24 = 14122496 samples = 24017.9 CDDA sectors
File Size : 13.0M
Bit Rate : 324k
Sample Encoding: MPEG audio (layer I, II or III)
Comments :
Title=Descent
Artist=Tomorrow's Outlook
Album=A Voice Unheard
Tracknumber=2/12
Year=2018



[ Hidden Text ]

Posted by: Samaritianin Apr 16 2018, 09:13:07

[ Hidden Text ]

Powered by Invision Power Board
© Invision Power Services