Printable Version of Topic

Click here to view this topic in its original format

Metal Area - Extreme Music Portal _ New Releases _ Scorched By The Flaming Goat - Debate [single] (2018)

Posted by: Necrokilldozer Jun 12 2018, 15:36:48

http://metalarea.org/images/audiocovers/2018_Jun/acov_tid307048.jpg

*Artist: Scorched By The Flaming Goat
*Album: Debate [single]
*Year: 2018
*Genre: Symphonic/Blackened Death Metal/Deathcore
*Country: Chile
*Format: mp3@CBR320kbps
*Size: 13MB

Tracklist:
1. Debate 05:18
******************************
Total playing time: 5:18

https://sbtfg.bandcamp.com/track/debate

Extended info
Line - up:

Marcel - Bass
Rodolfo - Drums
Benjamin - Guitars
Tomas - Guitars
Ignacio - Vocals



Technical info

Input File: 01 Debate.mp3
Channels : 2
Sample Rate : 44100
Precision : 16-bit
Duration : 00:05:10.57 = 13695917 samples = 23292.4 CDDA sectors
File Size : 12.4M
Bit Rate : 320k
Sample Encoding: MPEG audio (layer I, II or III)
Comments :
Title=Debate
Artist=Scorched By The Flaming Goat
Album=Debate (Single)
Tracknumber=1
Year=2018
Genre=Symphonic / Blackened Death Metal / Deathcore



[ Hidden Text ]

Powered by Invision Power Board
© Invision Power Services