Printable Version of Topic

Click here to view this topic in its original format

Metal Area - Extreme Music Portal _ New Releases _ Screams Of Death - Machine Men [ep] (2017)

Posted by: Necrokilldozer Jun 12 2018, 16:26:23

http://metalarea.org/images/audiocovers/2018_Jun/acov_tid307050.jpg

*Artist: Screams Of Death
*Album: Machine Men [ep]
*Year: 2017
*Genre: Death Metal
*Country: Sweden
*Format: mp3@CBR320kbps
*Size: 61MB

Tracklist:
1. Machine Men 04:30
2. Iceman 03:08
3. Eyes Smashed to Liquid 04:05
4. Malicious Demise 05:49
5. Mortem Ut Salutarent Tyrannum 04:17
6. Berzerk 03:43
******************************
Total playing time: 25:32

https://screamsofdeath.bandcamp.com/

Extended info
FLAC RIP



Technical info

Input File: 06. Berzerk.mp3
Channels : 2
Sample Rate : 48000
Precision : 16-bit
Duration : 00:03:43.80 = 10742544 samples ~ 16785.2 CDDA sectors
File Size : 8.96M
Bit Rate : 320k
Sample Encoding: MPEG audio (layer I, II or III)
Comments :
Title=Berzerk
Artist=Screams of Death
Album=Machine Men (EP)
Tracknumber=6
Year=2017
Genre=22



[ Hidden Text ]

Powered by Invision Power Board
© Invision Power Services