Printable Version of Topic

Click here to view this topic in its original format

Metal Area - Extreme Music Portal _ New Releases _ Fetid Zombie & Battlestorm - Defiling The Altar Of Gods [split] (2012)

Posted by: smysl Jun 12 2018, 19:54:28

http://metalarea.org/images/audiocovers/2018_Jun/acov_tid307059.jpg

*Artist: http://metalarea.org/forum/index.php?showtopic=178278 & Battlestorm
*Album: Defiling The Altar Of Gods [split]
*Year: 2012
*Genre: Death Metal | Black/Death Metal
*Country: United States | Singapore
*Format: mp3@CBR320kbps
*Size: 56MB

Tracklist:
Fetid Zombie:
1.Noxious Belief 04:08
2.Hellish Strike 03:38
3.Fullmoon Necrophilia (Zemial cover) 02:19
Battlestorm:
4.Genocide Regiment 03:20
5.Total Desaster (Destruction cover) 03:39
6.A World's End 04:50
******************************
Total playing time: 21:54

https://www.facebook.com/Battlestorm666/
https://www.facebook.com/fetidzombie/
https://fetidzombie.bandcamp.com/album/defiling-the-altar-of-gods
https://battlestorm666.bandcamp.com/album/defiling-the-altar-of-gods

Technical info

Input File: 01. Fetid Zombie - Noxious Belief.mp3
Channels : 2
Sample Rate : 44100
Precision : 16-bit
Duration : 00:04:08.00 = 10936800 samples = 18600 CDDA sectors
File Size : 10.0M
Bit Rate : 323k
Sample Encoding: MPEG audio (layer I, II or III)
Comments :
Title=Noxious Belief
Artist=Fetid Zombie
Album=Defiling The Altar Of Gods
Tracknumber=01/06
Year=2012
Genre=Metal



[ Hidden Text ]

Powered by Invision Power Board
© Invision Power Services