Printable Version of Topic

Click here to view this topic in its original format

Metal Area - Extreme Music Portal _ New Releases _ Nocturno - Musica In Universum (2018)

Posted by: smysl Jun 13 2018, 00:55:28

http://metalarea.org/images/audiocovers/2018_Jun/acov_tid307068.jpg

*Artist: Nocturno
*Album: Musica In Universum
*Year: 2018
*Genre: Black Metal
*Country: Paraguay
*Format: mp3@CBR320kbps
*Size: 99MB

Tracklist:
1.Lucifer Light Bearers 04:22
2.Let the Hate Guide Your Sword 04:58
3.I've Come to Claim My Throne 04:35
4.Die Sonne Unter Dem Meer 04:37
5.Battle Cry 03:39
6.Wandering Eternally In A Dimension of Darkness 12:00
7.Udjat 03:35
8.Battle Cry (On a Cold and Cloudy Battlefield) 04:14
******************************
Total playing time: 42:00

https://nocturnoblackmetal.bandcamp.com/album/musica-in-universum

Extended info
Recorded: At the Grave Studios in April 2014


Technical info

Input File: 01 Lucifer Light Bearers.mp3
Channels : 2
Sample Rate : 44100
Precision : 16-bit
Duration : 00:04:22.66 = 11583394 samples = 19699.6 CDDA sectors
File Size : 10.6M
Bit Rate : 323k
Sample Encoding: MPEG audio (layer I, II or III)
Comments :
Title=Lucifer Light Bearers
Artist=Nocturno
Album=Musica In Universum
Tracknumber=1
Year=2018
Genre=Black Metal



[ Hidden Text ]

Powered by Invision Power Board
© Invision Power Services