Printable Version of Topic

Click here to view this topic in its original format

Metal Area - Extreme Music Portal _ New Releases _ Nocturno - Under The Laws Of Thelema (2017)

Posted by: smysl Jun 13 2018, 01:03:34

http://metalarea.org/images/audiocovers/2018_Jun/acov_tid307069.jpg

*Artist: Nocturno
*Album: Under The Laws Of Thelema
*Year: 2017
*Genre: Black Metal
*Country: Paraguay
*Format: mp3@CBR320kbps
*Size: 51MB

Tracklist:
1.Destruction Device 03:29
2.They Will Come Again 05:15
3.They Still Deny Miserably 02:59
4.Lucifer's Prayer Chant 01:43
5.Sound of Death 03:59
6.Under the Laws of Thelema 04:05
******************************
Total playing time: 21:30

https://nocturnoblackmetal.bandcamp.com/album/under-the-laws-of-thelema

Extended info
Recorded at the Grave studio, September 2013.


Technical info

Input File: 01 Destruction Device.mp3
Channels : 2
Sample Rate : 44100
Precision : 16-bit
Duration : 00:03:29.94 = 9258442 samples = 15745.6 CDDA sectors
File Size : 8.48M
Bit Rate : 323k
Sample Encoding: MPEG audio (layer I, II or III)
Comments :
Title=Destruction Device
Artist=Nocturno
Album=Under the Laws of Thelema
Tracknumber=1
Year=2017
Genre=Black Metal



[ Hidden Text ]

Powered by Invision Power Board
© Invision Power Services