Printable Version of Topic

Click here to view this topic in its original format

Metal Area - Extreme Music Portal _ New Releases _ Violet Cold - Sommermorgen Pt. II Joy (2018)

Posted by: necroscum Jun 13 2018, 02:07:01

http://metalarea.org/images/audiocovers/2018_Jun/acov_tid307071.jpg

*Artist: Violet Cold
*Album: Sommermorgen Pt. II Joy
*Year: 2018
*Genre: Atmospheric/Post-Black Metal
*Country: Azerbaijan
*Format: mp3@CBR320kbps
*Size: 89MB

Tracklist:
01. Kopfkino 05:09
02. Azure Dreaming 03:53
03. Time To Tango 04:35
04. Schöne Dummheit 04:17
05. Altitude 04:22
06. Love Performance 03:48
07. Penguins Commit Suicide 04:52
08. Warten Auf Nichts 04:04
09. 1997 03:46
******************************
Total playing time: 38:46

https://violetcold.bandcamp.com/album/sommermorgen-pt-ii-joy

Technical info

Input File: 02. Azure Dreaming.mp3
Channels : 2
Sample Rate : 44100
Precision : 16-bit
Duration : 00:03:53.25 = 10286149 samples = 17493.5 CDDA sectors
File Size : 9.33M
Bit Rate : 320k
Sample Encoding: MPEG audio (layer I, II or III)
Comments :
Title=Azure Dreaming
Artist=Violet Cold
Album=Sommermorgen, Pt. II: Joy
Tracknumber=2/9
Year=2018



[ Hidden Text ]

Powered by Invision Power Board
© Invision Power Services