Printable Version of Topic

Click here to view this topic in its original format

Metal Area - Extreme Music Portal _ New Releases _ Ered Amlug - Satan Will Collect (2018)

Posted by: Samaritianin Jun 13 2018, 04:10:24

http://metalarea.org/images/audiocovers/2018_Jun/acov_tid307072.jpg

*Artist: Ered Amlug
*Album: Satan Will Collect
*Year: 2018
*Genre: Melodic Black Metal
*Country: Japan
*Format: mp3@CBR320kbps
*Size: 106MB

Tracklist:
01. Nillin 04:16
02. Gallows 04:44
03. Black Lives Matter 05:10
04. Shadow of Death 05:15
05. Satan Will Collect 05:38
06. Hallel 06:40
07. Balota Og Afar 08:39
08. God Emperor 04:42
******************************
Total playing time: 45:04

https://eredamlug.bandcamp.com/releases

Extended info


Technical info

Input File: 02 Gallows.mp3
Channels : 2
Sample Rate : 44100
Precision : 16-bit
Duration : 00:04:44.06 = 12527002 samples = 21304.4 CDDA sectors
File Size : 11.7M
Bit Rate : 329k
Sample Encoding: MPEG audio (layer I, II or III)
Comments :
Title=Gallows
Artist=Ered Amlug
Album=Satan Will Collect
Tracknumber=2/8
Year=2018
Genre=Black Metal
Discnumber=1/1



[ Hidden Text ]

Posted by: Samaritianin Jun 13 2018, 08:57:05

[ Hidden Text ]

Posted by: isvili Jun 15 2018, 10:59:12

Зачем вообще такое петь? Не понятно.

Posted by: vosmidesijatye Jun 15 2018, 11:01:24

ЦИТАТА(isvili @ Jun 15 2018, 13:59:12) *
Зачем вообще такое петь? Не понятно.


Ну так они даже название альбома безграмотно написали. Что будет коллекционировать Сатана? 1488.gif

Такие ошибки нашим еще относительно простительны...

Posted by: randyhermit Jun 15 2018, 11:02:58

ЦИТАТА(vosmidesijatye @ Jun 15 2018, 13:01:24) *
Что будет коллекционировать Сатана? 1488.gif

таких, как ты

Powered by Invision Power Board
© Invision Power Services