Printable Version of Topic

Click here to view this topic in its original format

Metal Area - Extreme Music Portal _ New Releases _ Yuzukingdom - Genesis (2018)

Posted by: Lucifer Jun 13 2018, 04:55:58

https://metalarea.org/images/audiocovers/2018_Jun/acov_tid307074.jpg

*Artist: Yuzukingdom
*Album: Genesis
*Year: 2018
*Genre: Melodic Death/Power Metal
*Country: Japan
*Format: mp3@CBR320kbps
*Size: 96MB

Tracklist:
1. Gate of the Kingdom
2. Trauma
3. Eyes Shut Tightly
4. National Anthem
5. Bleeding
6. Roskill Lavender
7. Plastic Smile
8. Wide Eyed Dreamer
9. Empty Hours
10. Evil Game
11. We All Fight to Live
******************************
Total playing time: 41:11

https://www.youtube.com/watch?v=sLgJoP-xXL4
https://www.youtube.com/watch?v=gVRyAVJek40
https://www.youtube.com/watch?v=piRrLxvPjUU

Extended info
Дебютный альбом. В состав YUZUKINGDOM входит весь современный состав Blood Stain Child, плюс вокалистка Yuzuki (Q'ulle).

Yuzuki - вокал, автор тестов
Ryu - гитара, автор музыки
Saika - вокал
G.S.R. - гитара
Yakky - бас
Yasu - барабаны


Technical info

Input File: 01. Gate of the Kingdom.mp3
Channels : 2
Sample Rate : 44100
Precision : 16-bit
Duration : 00:01:48.58 = 4788290 samples = 8143.35 CDDA sectors
File Size : 4.39M
Bit Rate : 323k
Sample Encoding: MPEG audio (layer I, II or III)
Comments :
Title=Gate of the Kingdom
Artist=Yuzukingdom
Album=Genesis
Tracknumber=1/11
Year=2018
Genre=Metal
Discnumber=1/1



[ Hidden Text ]

Posted by: Andrew Jun 13 2018, 21:04:03

[ Hidden Text ]

Posted by: AHBAnep Jun 14 2018, 05:44:49

Да, вот эта "плюс вокалистка" для меня несъедобна.. да и Blood Stain Child давно уже отстойная банда.

Posted by: DenisKov Jun 18 2018, 19:54:10

Господе что же за дерьмо...Надо быть реально больным, чтобы это нравилось.

Posted by: zauber1 Jun 19 2018, 18:12:31

Обычный мелодэт. Выходит, он только больным нравится?

Posted by: Lucifer Jun 20 2018, 04:46:08

ЦИТАТА(zauber1 @ 20th June 2018 - 03:12:31) *
Обычный мелодэт.

Не совсем обычный, присутствует изрядная доля хардкор/металкоровых рваных рифов. Местами слышатся отголоски павера (National Anthem) и джей-попа (Bleeding, Empty Hours). Сам мелодет идет как основа, его в альбоме по ощущениям около 70%.
В целом, крепкий экспериментальный релиз, очень понравились жирные гитары и то, как органично в песнях сочетаются куски с полной экстремальщиной, так и вполне спокойные места, да еще и хитово всё это дело звучит, ибо материал довольно разнообраный и запоминающийся.

Из аналогий на ум приходят Maximum The Hormone (те же составляющие, только в других пропорциях), да Blood Stain Child образца "Last Stardust" (только без обильной электронщины и с поправкой на других вокалистов).

Я даже не знаю кем нужно быть, чтобы такой любопытный альбом дерьмом поливать. Либо закостенелым противником любых экспериментов и смешивания жанров, либо не переваривать чистый японский вокал (такие персонажи обычно клеймят тегом "фуаниме"). Остальных альбом может порадовать.

Posted by: DenisKov Jun 20 2018, 13:14:17

Очевидно вы не прикидываетесь...Я думал любому кто это включит станет противно от вокала.
PS Анимэ мне кстати то же не нравится своей рисовкой, но за то чтобы его вообще не существовало я никогда не агитировал. Смотрите на здоровье.

Powered by Invision Power Board
© Invision Power Services