Printable Version of Topic

Click here to view this topic in its original format

Metal Area - Extreme Music Portal _ Archive _ End Of Reign - Into The Ocean (2018)

Posted by: Samaritianin Jun 13 2018, 05:52:51

http://metalarea.org/images/audiocovers/2018_Jun/acov_tid307075.jpg

*Artist: End Of Reign
*Album: Into The Ocean
*Year: 2018
*Genre: Heavy/Thrash Metal
*Country: Germany
*Format: mp3@CBR320kbps
*Size: 89MB

Tracklist:
1. Abandoned Ship
2. Searching For You
3. Escape The Strife
4. Forsaken
5. Into The Ocean
6. Thrown For Deliverance
7. Blinded
8. Worst Nightmare
9. In My Arms
10. Empty Memories
11. Triumph Of Reign
******************************
Total playing time: 34:48

https://www.facebook.com/meikendofreign/

Technical info

Input File: 02 Searching for You.mp3
Channels : 2
Sample Rate : 44100
Precision : 16-bit
Duration : 00:03:49.09 = 10102957 samples = 17181.9 CDDA sectors
File Size : 9.86M
Bit Rate : 344k
Sample Encoding: MPEG audio (layer I, II or III)
Comments :
Title=Searching for You
Artist=End of Reign
Album=Into the Ocean
Tracknumber=2/11
Year=2018
Genre=Thrash Metal
Discnumber=1/1



[ Hidden Text ]

Posted by: Samaritianin Jun 13 2018, 08:58:31

[ Hidden Text ]

Posted by: AHBAnep Jun 14 2018, 05:48:16

Уныло до безобразия.. Вокал(ы) чистый и харш - паршивые.

Powered by Invision Power Board
© Invision Power Services