Printable Version of Topic

Click here to view this topic in its original format

Metal Area - Extreme Music Portal _ New Releases _ Deflorated Eye Sockets - Taking A Piss Shower [ep] (2018)

Posted by: necroscum Jun 13 2018, 11:16:26

https://metalarea.org/images/audiocovers/2018_Jun/acov_tid307078.jpg

*Artist: Deflorated Eye Sockets
*Album: Taking A Piss Shower [ep]
*Year: 2018
*Genre: Goregrind/Noisegrind
*Country: Russian Federation
*Format: mp3@CBR320kbps
*Size: 15MB

Tracklist:
01. Untitled 01 00:25
02. Untitled 02 00:59
03. Untitled 03 00:54
04. Untitled 04 00:43
05. Untitled 05 00:52
06. Untitled 06 00:41
07. Untitled 07 00:38
08. Untitled 08 00:47
******************************
Total playing time: 5:59

https://dxexsx.bandcamp.com/album/taking-a-piss-shower

Technical info

Input File: 02. Untitled 02.mp3
Channels : 2
Sample Rate : 44100
Precision : 16-bit
Duration : 00:00:59.02 = 2602606 samples = 4426.2 CDDA sectors
File Size : 2.44M
Bit Rate : 331k
Sample Encoding: MPEG audio (layer I, II or III)
Comments :
Title=Untitled 02
Artist=Deflorated Eye Sockets
Album=Taking a Piss Shower
Tracknumber=2
Year=2018



[ Hidden Text ]

Powered by Invision Power Board
© Invision Power Services