Printable Version of Topic

Click here to view this topic in its original format

Metal Area - Extreme Music Portal _ New Releases _ Cruel Master - Demo V [demo] (2018)

Posted by: smysl Jun 13 2018, 11:19:55

http://metalarea.org/images/audiocovers/2018_Jun/acov_tid307079.jpg

*Artist: Cruel Master
*Album: Demo V [demo]
*Year: 2018
*Genre: Black Metal/Punk
*Country: United States
*Format: mp3@CBR320kbps
*Size: 46MB

Tracklist:
1.Lecherous 02:58
2.Naked & Bleeding 03:56
3.Tortuous Death 03:19
4.Your Sacrifice 02:19
5.Depopulate 03:20
6.Become Nothing 03:55
******************************
Total playing time: 19:47

https://cruelmaster.bandcamp.com

Technical info

Input File: 01 Lecherous.mp3
Channels : 2
Sample Rate : 44100
Precision : 16-bit
Duration : 00:02:58.67 = 7879391 samples = 13400.3 CDDA sectors
File Size : 7.18M
Bit Rate : 322k
Sample Encoding: MPEG audio (layer I, II or III)
Comments :
Title=Lecherous
Artist=Cruel Master
Album=Demo V
Tracknumber=1
Year=2018
Genre=Black Metal



[ Hidden Text ]

Posted by: RUSP73 Jun 15 2018, 08:58:48

Одна из немногих штатовских команд действительно клёво играющих в ключе Ildjarn'а

Powered by Invision Power Board
© Invision Power Services