Printable Version of Topic

Click here to view this topic in its original format

Metal Area - Extreme Music Portal _ New Releases _ In Snakes I Bathe - Ha Ha Michael Keene Got Addicted To Heroin [ep] (2018)

Posted by: necroscum Jun 13 2018, 11:29:47

https://metalarea.org/images/audiocovers/2018_Jun/acov_tid307080.jpg

*Artist: In Snakes I Bathe
*Album: Ha Ha Michael Keene Got Addicted To Heroin [ep]
*Year: 2018
*Genre: Grindcore
*Country: United Kingdom
*Format: mp3@CBR320kbps
*Size: 2MB

Tracklist:
01. Ha Ha Michael Keene Got Addicted To Heroin 00:17
02. Ha Ha Michael Keene Got Addicted To Heroin (Instrumental) 00:12
03. I Hate East Ayrshire Council 00:10
******************************
Total playing time: 0:39

https://www.facebook.com/insnakesibathe
https://soundcloud.com/insnakesibathe
https://insnakesibathe.bandcamp.com/album/ha-ha-michael-keene-got-addicted-to-heroin

Technical info

Input File: 03. I Hate East Ayrshire Council.mp3
Channels : 2
Sample Rate : 44100
Precision : 16-bit
Duration : 00:00:10.03 = 442367 samples = 752.325 CDDA sectors
File Size : 495k
Bit Rate : 395k
Sample Encoding: MPEG audio (layer I, II or III)
Comments :
Title=I Hate East Ayrshire Council
Artist=In Snakes I Bathe
Album=Ha Ha Michael Keene Got Addicted to Heroin
Tracknumber=3
Year=2018



[ Hidden Text ]

Posted by: babanguida Jun 13 2018, 16:47:58

very interesting

Powered by Invision Power Board
© Invision Power Services