Printable Version of Topic

Click here to view this topic in its original format

Metal Area - Extreme Music Portal _ New Releases _ Artificial Urinary Sphincter - Arsestralia's Most Cunted (2018)

Posted by: necroscum Jun 13 2018, 11:47:29

https://metalarea.org/images/audiocovers/2018_Jun/acov_tid307081.jpg

*Artist: Artificial Urinary Sphincter
*Album: Arsestralia's Most Cunted
*Year: 2018
*Genre: Goregrind
*Country: Australia
*Format: mp3@CBR320kbps
*Size: 43MB

Tracklist:
01. Puss Filled Nutsack Embolism 01:59
02. Hot 'N Spicy Anal Abscess 01:06
03. Suffocating On Colostomy Bag Jenkem 01:17
04. Blistered And Oozing Cunnilingus Herpes Cold Sores 01:47
05. Original Recipe Atrophy 02:09
06. Give Me Rock Or Give Me Head 03:01
07. Cripple Bitch (GUT Cover) 01:11
08. Drowned In Urine From An Overflowing Urostomy Bag 01:43
09. Carcinogenic Fecal Aerosols 04:12
******************************
Total playing time: 18:25

https://steelcitygoregrind.bandcamp.com/album/arsestralias-most-cunted

Technical info

Input File: 03. Suffocating On Colostomy Bag Jenkem.mp3
Channels : 2
Sample Rate : 44100
Precision : 16-bit
Duration : 00:01:18.06 = 3442490 samples = 5854.57 CDDA sectors
File Size : 3.19M
Bit Rate : 327k
Sample Encoding: MPEG audio (layer I, II or III)
Comments :
Title=Suffocating On Colostomy Bag Jenkem
Artist=A.U.S (Artificial Urinary Sphincter)
Album=ARSESTRALIA'S MOST CUNTED
Tracknumber=3
Year=2018



[ Hidden Text ]

Posted by: babanguida Jun 13 2018, 14:24:50

21.gif

Posted by: vosmidesijatye Jun 13 2018, 14:26:53

Goregrind shitty bands fall down like snow in Arctic.

First we had black metal, then this ppl decided to switch on to grind.


Posted by: babanguida Jun 13 2018, 14:47:53

QUOTE(vosmidesijatye @ Jun 13 2018, 15:26:53) *
Goregrind shitty bands fall down like snow in Arctic.

First we had black metal, then this ppl decided to switch on to grind.

yes, ridiculous. They are fake bands to me.

Posted by: vosmidesijatye Jun 13 2018, 14:48:48

It`s not even bands. Even robot can play better than this clowns.

Powered by Invision Power Board
© Invision Power Services