Printable Version of Topic

Click here to view this topic in its original format

Metal Area - Extreme Music Portal _ New Releases _ Sociasylum - Crossroads (2018)

Posted by: necroscum Jun 13 2018, 12:02:17

https://metalarea.org/images/audiocovers/2018_Jun/acov_tid307082.jpg

*Artist: Sociasylum
*Album: Crossroads
*Year: 2018
*Genre: Grindcore
*Country: Estonia
*Format: mp3@CBR320kbps
*Size: 50MB

Tracklist:
01. Cramped
02. Crossroads
03. Extinct
04. Psychosis
05. Hollow
06. Antidote
07. Origin
08. Wet Cloth
09. Projections
10. Stroll
11. Tin Soldier
******************************
Total playing time: 22:35

https://www.facebook.com/Sociasylum/
https://www.youtube.com/watch?v=1D8u2PO4viQ

Technical info

Input File: 02. Crossroads.mp3
Channels : 2
Sample Rate : 44100
Precision : 16-bit
Duration : 00:02:19.77 = 6163901 samples = 10482.8 CDDA sectors
File Size : 5.68M
Bit Rate : 325k
Sample Encoding: MPEG audio (layer I, II or III)
Comments :
Title=Crossroads
Artist=Sociasylum
Album=Crossroads
Tracknumber=2
Year=2018
Genre=Метал
Discnumber=1



[ Hidden Text ]

Powered by Invision Power Board
© Invision Power Services