Printable Version of Topic

Click here to view this topic in its original format

Metal Area - Extreme Music Portal _ New Releases _ Dos Brujos - Fuck Off And Jam! Volume III [ep] (2017)

Posted by: necroscum Jun 13 2018, 12:12:07

https://metalarea.org/images/audiocovers/2018_Jun/acov_tid307083.jpg

*Artist: Dos Brujos
*Album: Fuck Off And Jam! Volume III [ep]
*Year: 2017
*Genre: Instrumental Sludge/Doom Metal
*Country: Austria
*Format: mp3@CBR320kbps
*Size: 137MB

Tracklist:
01. Kanposantu 10:37
02. Dungeon Of Doom 14:35
03. Catacumba 09:00
04. Mausoleo 08:09
05. The Shroud 19:16
******************************
Total playing time: 1:01:37

https://www.facebook.com/DosBrujos/
https://soundcloud.com/dos-brujos
https://dosbrujos.bandcamp.com/album/fuck-off-and-jam-volume-iii
https://www.youtube.com/watch?v=Q8AT9cEFVy0

Technical info

Input File: 02. Dungeon Of Doom.mp3
Channels : 2
Sample Rate : 44100
Precision : 16-bit
Duration : 00:14:35.81 = 38623265 samples = 65685.8 CDDA sectors
File Size : 35.3M
Bit Rate : 322k
Sample Encoding: MPEG audio (layer I, II or III)
Comments :
Title=Dungeon Of Doom
Artist=Dos Brujos
Album=Fuck Off and Jam! Volume III
Tracknumber=2
Year=2017



[ Hidden Text ]

Powered by Invision Power Board
© Invision Power Services