Printable Version of Topic

Click here to view this topic in its original format

Metal Area - Extreme Music Portal _ New Releases _ Dos Brujos - Yaw Eht [ep] (2017)

Posted by: necroscum Jun 13 2018, 12:24:23

https://metalarea.org/images/audiocovers/2018_Jun/acov_tid307084.jpg

*Artist: Dos Brujos
*Album: Yaw Eht [ep]
*Year: 2017
*Genre: Instrumental Sludge/Doom Metal
*Country: Austria
*Format: mp3@CBR320kbps
*Size: 104MB

Tracklist:
01. Yaw 27:02
02. Eht 17:49
******************************
Total playing time: 44:51

https://www.facebook.com/DosBrujos/
https://soundcloud.com/dos-brujos
https://dosbrujos.bandcamp.com/album/yaw-eht

Technical info

Input File: 02. Eht.mp3
Channels : 2
Sample Rate : 44100
Precision : 16-bit
Duration : 00:17:49.40 = 47160364 samples = 80204.7 CDDA sectors
File Size : 43.0M
Bit Rate : 321k
Sample Encoding: MPEG audio (layer I, II or III)
Comments :
Title=Eht
Artist=Dos Brujos
Album=Yaw Eht
Tracknumber=2
Year=2017



[ Hidden Text ]

Powered by Invision Power Board
© Invision Power Services