Printable Version of Topic

Click here to view this topic in its original format

Metal Area - Extreme Music Portal _ New Releases _ Dos Brujos - Gates Of Guinee [ep] (2017)

Posted by: necroscum Jun 13 2018, 12:34:48

https://metalarea.org/images/audiocovers/2018_Jun/acov_tid307085.jpg

*Artist: Dos Brujos
*Album: Gates Of Guinee [ep]
*Year: 2017
*Genre: Instrumental Sludge/Doom Metal
*Country: Austria
*Format: mp3@CBR320kbps
*Size: 97MB

Tracklist:
01. Seven Nights 09:50
02. Seven Moons 07:15
03. Seven Gates 05:49
04. Seven Tombs 05:25
05. Papa Legba 14:07
******************************
Total playing time: 42:26

https://www.facebook.com/DosBrujos/
https://soundcloud.com/dos-brujos
https://dosbrujos.bandcamp.com/album/gates-of-guinee

Technical info

Input File: 02. Seven Moons.mp3
Channels : 2
Sample Rate : 44100
Precision : 16-bit
Duration : 00:07:16.00 = 19227512 samples = 32699.9 CDDA sectors
File Size : 17.5M
Bit Rate : 321k
Sample Encoding: MPEG audio (layer I, II or III)
Comments :
Title=Seven Moons
Artist=Dos Brujos
Album=Gates of Guinee
Tracknumber=2
Year=2017



[ Hidden Text ]

Powered by Invision Power Board
© Invision Power Services