Printable Version of Topic

Click here to view this topic in its original format

Metal Area - Extreme Music Portal _ New Releases _ Illness - Trvmna [ep] (2015)

Posted by: smysl Jun 13 2018, 12:44:01

http://metalarea.org/images/audiocovers/2018_Jun/acov_tid307086.jpg

*Artist: Illness
*Album: Trvmna [ep]
*Year: 2015
*Genre: Black Metal
*Country: International
*Format: mp3@CBR320kbps
*Size: 64MB

Tracklist:
1. Intro 02:11
2. Trvmna 03:18
3. Dødskyggen 06:06
4. The Kingdom Comes (Mysticum cover) 04:53
5. Grobowa Mgła 03:42
6. Cranium 03:59
******************************
Total playing time: 24:09

https://www.facebook.com/Illnesshorde
https://illness666.bandcamp.com/album/trvmna-mini-album-2015

Extended info
International project (Norway/Poland)
CD, Metallic Media/Black Plague Records
+ scans


Technical info

Input File: 02 Trvmna.mp3
Channels : 2
Sample Rate : 44100
Precision : 16-bit
Duration : 00:03:19.89 = 8815237 samples = 14991.9 CDDA sectors
File Size : 8.00M
Bit Rate : 320k
Sample Encoding: MPEG audio (layer I, II or III)
Comments :
Title=Trvmna
Artist=Illness
Album=Trvmna
Tracknumber=2
Year=2015
Genre=Black Metal



[ Hidden Text ]

Posted by: RUSP73 Jun 15 2018, 08:54:48

Никакой особой Норвегии здесь нет, все поляки, тока один переехал в Норвегию...по музыке средненько

Posted by: vosmidesijatye Jun 15 2018, 08:58:39

ЦИТАТА(RUSP73 @ Jun 15 2018, 11:54:48) *
Никакой особой Норвегии здесь нет, все поляки, тока один переехал в Норвегию...по музыке средненько


Так тру норвежсий бм уже давно исчез, еще в середине 90-х. 25.gif

Powered by Invision Power Board
© Invision Power Services