Printable Version of Topic

Click here to view this topic in its original format

Metal Area - Extreme Music Portal _ Archive _ War Dogs - War Dogs [ep] (2018)

Posted by: aesteticvice Jul 10 2018, 21:15:22

http://metalarea.org/images/audiocovers/2018_Jul/acov_tid308060.jpg

*Artist: War Dogs
*Album: War Dogs [ep]
*Year: 2018
*Genre: Heavy/Speed Metal
*Country: Spain
*Format: mp3@CBR320kbps
*Size: 62MB

Tracklist:
1. Back for the Attack 04:05
2. Playing with Fire 03:23
3. Immortal's Lament 06:28
4. Midnight Whisper 03:33
5. Rampage 05:46
6. To Live to Fight Another Day 03:16
******************************
Total playing time: 26:31

https://www.facebook.com/War-Dogs-1575490326072256/

Extended info
Manuel Molina - Bass (2015-present)
José V. Aldeguer - Drums (2015-present)
Eduardo Antón - Guitars (lead) (2015-present)
Enrique Mas - Guitars (rhythm) (2017-present)
Alberto Rodríguez - Vocals (2017-present)



Technical info

Input File: 02. Playing with Fire.mp3
Channels : 2
Sample Rate : 44100
Precision : 16-bit
Duration : 00:03:23.30 = 8965486 samples = 15247.4 CDDA sectors
File Size : 8.49M
Bit Rate : 334k
Sample Encoding: MPEG audio (layer I, II or III)
Comments :
Title=Playing with Fire
Artist=War Dogs
Album=War Dogs
Tracknumber=2/6
Year=2018
Discnumber=1/1



[ Hidden Text ]

Posted by: aesteticvice Jul 11 2018, 03:15:04

mirror
[ Hidden Text ]

Posted by: SAPOGi Jul 11 2018, 06:38:45




Posted by: Jahmephisto Jul 11 2018, 16:29:34

Молодцы испанцы. Тот самый приемлемый гаражный уровень. Видно что ребята отсидели свои "ЖЧ" композиторские жоуппа-часы с инструментом в руках и писали уже осознанно. Молодцы!

Posted by: zauber1 Jul 22 2018, 15:55:29

Полное днище.

Posted by: hammer Jul 22 2018, 18:13:47

ЦИТАТА(zauber1 @ Jul 22 2018, 17:55:29) *
Полное днище.

нет.

Posted by: slack Jul 22 2018, 19:21:14

Вокал слабоват. Хорошего продюсера и звука не хватает...
Слушать можно.

Powered by Invision Power Board
© Invision Power Services