Printable Version of Topic

Click here to view this topic in its original format

Metal Area - Extreme Music Portal _ New Releases _ Virox - VxRxXx [ep] (2018)

Posted by: Samaritianin Jul 10 2018, 23:26:41

https://metalarea.org/images/audiocovers/2018_Jul/acov_tid308063.jpg

*Artist: Virox
*Album: VxRxXx [ep]
*Year: 2018
*Genre: Thrash Metal
*Country: Mexico
*Format: mp3@CBR320kbps
*Size: 31MB

Tracklist:
01. Acto de Guerra
03. Desastre Nuclear
04. Instinto Alcohólico
04. VxRxXx
******************************
Total playing time: 14:24

https://www.facebook.com/viroxthrashmetal/

Extended info
Jose - Batería y coros
Oswald - Voz
Andres - Guitarra
Eddie - Bajo


Technical info

Input File: 03 - Instinto Alcoholico.mp3
Channels : 2
Sample Rate : 44100
Precision : 16-bit
Duration : 00:03:50.98 = 10186130 samples = 17323.4 CDDA sectors
File Size : 9.25M
Bit Rate : 320k
Sample Encoding: MPEG audio (layer I, II or III)
Comments :
Title=Instinto Alcoholico
Artist=ViroX
Album=VxRxXx
Tracknumber=3
Year=2018
Genre=Thrash Metal



[ Hidden Text ]

Powered by Invision Power Board
© Invision Power Services