Printable Version of Topic

Click here to view this topic in its original format

Metal Area - Extreme Music Portal _ New Releases _ Sewer - Rektal (2018)

Posted by: aesteticvice Jul 11 2018, 03:24:45

http://metalarea.org/images/audiocovers/2018_Jul/acov_tid308066.jpg

*Artist: Sewer
*Album: Rektal
*Year: 2018
*Genre: Raw Black Metal
*Country: United States
*Format: mp3@CBR320kbps
*Size: 133MB

Tracklist:
01. Eldorado
02. Kadaver Seksual
03. Preteen Labial Exsanguination
04. Aberrant Urethral Placenta Commotion
05. Post-Mortem Telolecithal Embryonic Prostitute
06. Hyperpriapic Procrustean Goresaw to Defile the Cunt of Satan
07. Retrograde Prenatal Haruspicy on Seismologic Subintestinal Amygdala
08. Dark Satanic Sex with Satanic Demons and Satan Protoplasmic Vagina 666
09. Necrophobic Autosexual Reverence of Pedophallic Retroperitoneal Scatofoetal Gastronomy
10. Aquatile Sodomy to Heptahedral Obsequial Sphincter Sewage in the Mouth of Satan Crucifix
11. Rektal
******************************
Total playing time: 1:03:33

https://www.facebook.com/thesatanrecords/

Extended info



Technical info

Input File: 02-sewer-kadaver_seksual-35fc811f.mp3
Channels : 2
Sample Rate : 44100
Precision : 16-bit
Duration : 00:04:28.48 = 11839880 samples = 20135.9 CDDA sectors
File Size : 11.0M
Bit Rate : 327k
Sample Encoding: MPEG audio (layer I, II or III)
Comments :
Title=Kadaver Seksual
Artist=Sewer
Album=Rektal
Tracknumber=2/11
Year=2018
Genre=Black Metal



[ Hidden Text ]

Posted by: Funeral Frost Jul 11 2018, 15:00:20

как
они интересно
расположили названия
по длине

Posted by: judaz Jul 11 2018, 15:18:15

По двум превьюшным трекам - тянет на альбом года.

Posted by: babanguida Jul 11 2018, 19:12:33

raw black metal 21.gif
none of these


Posted by: RUSP73 Jul 13 2018, 08:21:44

Ерунда какая-то...вокалист перестарался с дисторшеном - какой тут альбом года...

Powered by Invision Power Board
© Invision Power Services