Printable Version of Topic

Click here to view this topic in its original format

Metal Area - Extreme Music Portal _ Archive _ Scape Land - Evil Mind Pieces (2018)

Posted by: aesteticvice Jul 11 2018, 08:33:41

http://metalarea.org/images/audiocovers/2018_Jul/acov_tid308067.jpg

*Artist: Scape Land
*Album: Evil Mind Pieces
*Year: 2018
*Genre: Extreme Progressive Metal
*Country: Spain
*Format: mp3@CBR320kbps
*Size: 100MB

Tracklist:
1. Evil 06:18
2. Take 'em Out 05:00
3. I am 04:27
4. Crazy 05:15
5. God's Love 06:30
6. Don't Break Me Up 05:05
7. Breath 00:33
8. Alive 05:33
9. Mind Pieces 03:44
******************************
Total playing time: 42:25

https://www.facebook.com/pg/ScapeLandBand/about/?ref=page_internal
https://scapeland.bandcamp.com/

Extended info
Diego - Guitar / Guitarra
Iván - Singer / Cantante
Josema - Bass guitar / Bajo
Adrián - Drums / Batería


Technical info

Input File: 03 I Am.mp3
Channels : 2
Sample Rate : 44100
Precision : 16-bit
Duration : 00:04:27.96 = 11816816 samples = 20096.6 CDDA sectors
File Size : 11.1M
Bit Rate : 331k
Sample Encoding: MPEG audio (layer I, II or III)
Comments :
Title=I Am
Artist=Scape Land
Album=Evil Mind Pieces
Tracknumber=3/9
Year=2018
Genre=Metal
Discnumber=1/1



[ Hidden Text ]

Posted by: aesteticvice Jul 11 2018, 16:03:18

mirror
[ Hidden Text ]



Posted by: JPV Jul 12 2018, 08:52:58

Послушал один трэк с альбома. Ну что-то такое в этом есть. Пожалуй, скачаю и послушаю.

Powered by Invision Power Board
© Invision Power Services