Printable Version of Topic

Click here to view this topic in its original format

Metal Area - Extreme Music Portal _ New Releases _ Bitter Lake - Bitter Lake (2018)

Posted by: aesteticvice Jul 11 2018, 09:05:38

http://metalarea.org/images/audiocovers/2018_Jul/acov_tid308068.jpg

*Artist: Bitter Lake
*Album: Bitter Lake
*Year: 2018
*Genre: Atmospheric Black Metal
*Country: United Kingdom
*Format: mp3@CBR320kbps
*Size: 85MB

Tracklist:
1. Frozen Landscapes 06:19
2. Elephant 08:30
3. Blue (FT Bladez) 11:08
4. Lost Souls 03:18
5. Frozen Landscapes (Single Version) 06:19
******************************
Total playing time: 35:34

https://www.facebook.com/officialbitterlake
https://officialbitterlake.bandcamp.com/album/bitter-lake-standard-edition

Extended info
Standard Edition


Technical info

Input File: 04 Lost Souls.mp3
Channels : 2
Sample Rate : 44100
Precision : 16-bit
Duration : 00:03:18.54 = 8755658 samples = 14890.6 CDDA sectors
File Size : 8.14M
Bit Rate : 328k
Sample Encoding: MPEG audio (layer I, II or III)
Comments :
Title=Lost Souls
Artist=Bitter Lake
Album=Bitter Lake (Standard Edition)
Tracknumber=4
Year=2018



[ Hidden Text ]

Posted by: Razorbladeswaltz Jul 11 2018, 22:43:23

mirror, pls

Posted by: Mirddin Jul 12 2018, 07:25:09

ЦИТАТА(Razorbladeswaltz @ 12th July 2018 - 00:43:23) *
mirror, pls

[ Hidden Text ]

Posted by: isvili Jul 13 2018, 17:12:52

Это дармовая лажа, а не музыка.

Posted by: Lucifer Jul 15 2018, 04:13:09

Это вовсе не атмосферик блэк, а причудливая смесь блэкушных ритмов и скрима с перегруженным дроуном в стиле первых альбомов Earth. При чем агрессивные и медитативные куски чередуются друг с другом. Определенную долю удовольствия (поклонникам дроуна) альбом доставит.

Powered by Invision Power Board
© Invision Power Services